<?xml version="1.0" standalone="no"?>
<!DOCTYPE svg PUBLIC "-//W3C//DTD SVG 1.1//EN" "http://www.w3.org/Graphics/SVG/1.1/DTD/svg11.dtd" >
<svg xmlns="http://www.w3.org/2000/svg" xmlns:xlink="http://www.w3.org/1999/xlink" version="1.1">
<metadata></metadata>
<defs>
<font id="lemon_milkregular" horiz-adv-x="1822" >
<font-face units-per-em="2048" ascent="1638" descent="-410" />
<missing-glyph horiz-adv-x="600" />
<glyph horiz-adv-x="0" />
<glyph horiz-adv-x="682" />
<glyph unicode=" "  horiz-adv-x="600" />
<glyph unicode="&#x09;" horiz-adv-x="600" />
<glyph unicode="&#xa0;" horiz-adv-x="600" />
<glyph unicode="!" horiz-adv-x="650" d="M155 123q0 69 49.5 117.5t118.5 48.5q71 0 121.5 -50t50.5 -119t-50 -117.5t-120 -48.5t-120 49.5t-50 119.5zM178 1612h290l-38 -1100h-212z" />
<glyph unicode="&#x22;" horiz-adv-x="766" d="M78 1653h254l-55 -525h-146zM434 1653h254l-54 -525h-147z" />
<glyph unicode="#" horiz-adv-x="1518" d="M56 399l25 191h262l49 375h-266l27 191h264l60 456h205l-60 -456h380l60 456h205l-60 -456h255l-25 -191h-255l-49 -375h259l-27 -191h-258l-52 -399h-205l52 399h-380l-52 -399h-205l52 399h-261zM548 590h380l49 375h-380z" />
<glyph unicode="$" horiz-adv-x="1257" d="M62 283l200 143q44 -77 116.5 -126t163.5 -65v523h-1q-40 18 -64 29t-62 30.5t-62 34.5t-55.5 38.5t-51.5 45t-42 50.5t-34 59.5t-20 68.5t-8 79q0 167 111.5 285.5t288.5 151.5v178h192v-171q144 -16 247.5 -90.5t147.5 -193.5l-188 -130q-29 64 -84 105.5t-123 56.5 v-450l8 -3q85 -37 146 -69.5t122.5 -77.5t99.5 -92.5t61.5 -111.5t23.5 -138q0 -185 -127.5 -309t-333.5 -153v-209h-192v205q-167 16 -292 97.5t-188 208.5zM397 1187q0 -55 36.5 -93.5t108.5 -74.5v352q-66 -26 -105.5 -75.5t-39.5 -108.5zM734 240q94 21 150.5 74 t56.5 124q0 68 -55 124t-152 107v-429z" />
<glyph unicode="%" horiz-adv-x="1749" d="M78 1257q0 154 110 264t264 110q153 0 263 -109.5t110 -263.5t-110.5 -264t-263.5 -110t-263 109.5t-110 263.5zM212 0l1100 1613h214l-1099 -1613h-215zM244 1257q0 -85 60.5 -145.5t146.5 -60.5q85 0 145.5 60.5t60.5 145.5q0 86 -60.5 146.5t-145.5 60.5 q-86 0 -146.5 -60.5t-60.5 -146.5zM924 353q0 154 110.5 264t263.5 110q154 0 264 -109.5t110 -263.5t-110.5 -264t-264.5 -110q-153 0 -263 110t-110 263zM1090 353q0 -85 60.5 -145.5t146.5 -60.5t146 60.5t60 146.5q0 85 -60 145t-145 60q-86 0 -147 -60.5t-61 -145.5z " />
<glyph unicode="&#x26;" horiz-adv-x="1545" d="M78 472q0 140 79.5 269.5t192.5 195.5q-98 182 -98 309q0 100 55.5 193t155 153t215.5 60q159 0 278 -106.5t142 -255.5l-245 -46q-9 73 -62 123.5t-121 50.5q-70 0 -119 -52.5t-49 -128.5q0 -134 152 -346t361 -396q59 133 67 311l238 3q-6 -271 -105 -469 q177 -119 284 -119l-1 -235q-161 1 -412 169q-183 -186 -457 -186q-131 0 -239 45t-174.5 118t-102 161t-35.5 179zM318 488q0 -119 78 -195t220 -76q156 0 267 94q-242 206 -413 440q-152 -108 -152 -263z" />
<glyph unicode="'" horiz-adv-x="409" d="M78 1653h254l-55 -525h-146z" />
<glyph unicode="(" horiz-adv-x="667" d="M78 817q0 533 262 915h229q-108 -179 -179.5 -437.5t-71.5 -478.5q0 -230 77.5 -495t193.5 -441h-230q-281 384 -281 937z" />
<glyph unicode=")" horiz-adv-x="667" d="M78 -120q116 176 193.5 441t77.5 495q0 220 -71.5 478.5t-179.5 437.5h229q262 -382 262 -915q0 -553 -281 -937h-230z" />
<glyph unicode="*" horiz-adv-x="849" d="M78 1192l258 127l-258 126l91 134l199 -165l-29 279h171l-29 -279l200 165l91 -134l-259 -130l259 -123l-91 -133l-200 164l29 -278h-171l29 280l-199 -166z" />
<glyph unicode="+" horiz-adv-x="1284" d="M155 634v235h370v428h235v-428h369v-235h-369v-430h-235v430h-370z" />
<glyph unicode="," horiz-adv-x="620" d="M121 -322q27 0 57.5 12t60 35t48.5 64.5t19 92.5q0 49 -17 77q-56 0 -104 41.5t-48 113.5q0 73 51.5 126t128.5 53q80 0 133.5 -66.5t53.5 -189.5q0 -167 -83.5 -286.5t-206.5 -119.5q-40 0 -66.5 16.5t-26.5 30.5z" />
<glyph unicode="-" horiz-adv-x="945" d="M78 675v222h790v-222h-790z" />
<glyph unicode="." horiz-adv-x="572" d="M116 123q0 70 50 120t120 50q69 0 119.5 -50.5t50.5 -119.5q0 -70 -50 -119.5t-120 -49.5t-120 49.5t-50 119.5z" />
<glyph unicode="/" horiz-adv-x="920" d="M23 -120l650 1852h224l-651 -1852h-223z" />
<glyph unicode="0" horiz-adv-x="1471" d="M78 806q0 180 48 334t133.5 263.5t208.5 171t268 61.5t268 -61.5t208.5 -171t133.5 -263.5t48 -334q0 -240 -82 -429t-232.5 -294.5t-343.5 -105.5t-343.5 105.5t-232.5 294.5t-82 429zM330 806q0 -254 111.5 -414t293.5 -160q181 0 293 160t112 414t-112 415t-293 161 q-120 0 -212.5 -73.5t-142.5 -204.5t-50 -298z" />
<glyph unicode="1" horiz-adv-x="704" d="M78 1237v264l397 126h74v-1627h-253v1302z" />
<glyph unicode="2" horiz-adv-x="1363" d="M78 0v54q507 411 720 639.5t213 372.5q0 133 -91.5 225t-210.5 92q-142 0 -240.5 -99.5t-98.5 -244.5l-231 56q0 149 75 273.5t204.5 196t282.5 71.5q154 0 284.5 -77t205 -205t74.5 -275q0 -201 -180.5 -422t-468.5 -405h670v-252h-1208z" />
<glyph unicode="3" horiz-adv-x="1247" d="M78 384l248 63q22 -91 106 -151.5t188 -60.5q125 0 209.5 79t84.5 185q0 146 -132.5 233t-343.5 85l40 148q147 0 250.5 66t103.5 176q0 88 -62.5 145.5t-153.5 57.5q-75 0 -133 -47.5t-72 -120.5l-259 54q34 150 163 256t303 106q126 0 233 -55.5t171 -155t64 -221.5 q0 -117 -59.5 -203.5t-151.5 -123.5q133 -48 213.5 -154t80.5 -264q0 -131 -71.5 -245t-197 -182.5t-274.5 -68.5q-194 0 -350 115.5t-198 283.5z" />
<glyph unicode="4" horiz-adv-x="1361" d="M23 346l596 1271l268 -1l-484 -1018h482v518h252v-518h177v-252h-177v-346h-252v346h-862z" />
<glyph unicode="5" horiz-adv-x="1299" d="M78 326l250 79q40 -73 124 -120t168 -47q62 0 121.5 21.5t108.5 61.5t79 103.5t30 141.5q0 141 -92 227t-240 86q-110 0 -209 -52t-144 -137l-142 85l119 838h831v-252h-640l-51 -332q103 95 271 95q252 0 406 -157t154 -401q0 -126 -46.5 -235t-126.5 -184t-188.5 -118 t-229.5 -43q-179 0 -333 93.5t-220 246.5z" />
<glyph unicode="6" horiz-adv-x="1289" d="M78 513q0 42 4.5 75t23 82.5t38.5 91t69 130t95.5 169.5t137 240t175.5 311l287 -1l-353 -608q78 30 161 30q127 0 240 -63t184.5 -181t71.5 -264q0 -145 -75.5 -270.5t-207 -200.5t-287.5 -75q-157 0 -285.5 67t-203.5 189.5t-75 277.5zM331 532q0 -121 93 -211t222 -90 q128 0 221.5 90.5t93.5 211.5q0 125 -92.5 215.5t-221.5 90.5q-130 0 -223 -90.5t-93 -216.5z" />
<glyph unicode="7" horiz-adv-x="1172" d="M47 1365v247h1102v-47l-646 -1565h-266l553 1365h-743z" />
<glyph unicode="8" horiz-adv-x="1255" d="M78 483q0 88 31.5 167t80.5 132.5t105 87t108 40.5q-96 20 -168 110.5t-72 208.5q0 79 35 153.5t95 131.5t148 91t187 34t186.5 -34t148.5 -90t96 -131t35 -155q0 -120 -75.5 -210.5t-163.5 -108.5q48 -9 102.5 -42t104.5 -86t82.5 -132.5t32.5 -167.5q0 -101 -41.5 -194 t-113 -162.5t-174.5 -110.5t-221 -41t-221.5 41.5t-174.5 111t-112 162.5t-41 194zM331 496q0 -113 85.5 -191.5t209.5 -78.5t210.5 79t86.5 193q0 111 -87 191.5t-207 80.5q-121 0 -209.5 -80.5t-88.5 -193.5zM408 1213q0 -85 64.5 -137.5t156.5 -52.5q90 0 155.5 50.5 t65.5 137.5q0 88 -63 140.5t-158 52.5q-94 0 -157.5 -52t-63.5 -139z" />
<glyph unicode="9" horiz-adv-x="1289" d="M78 1083q0 145 75 271.5t206 202.5t285 76q155 0 286.5 -76.5t206.5 -203.5t75 -273q0 -50 -5 -88t-23.5 -88.5t-40 -93.5t-70 -127t-96 -162.5t-135.5 -227t-173 -295.5h-289l343 593q-73 -27 -152 -27q-95 0 -184.5 39t-157.5 106.5t-109.5 165.5t-41.5 208zM330 1079 q0 -125 92 -215.5t221 -90.5q130 0 223 90.5t93 215.5q0 121 -93.5 212t-221.5 91q-129 0 -221.5 -91t-92.5 -212z" />
<glyph unicode=":" horiz-adv-x="572" d="M116 170q0 69 50 119.5t120 50.5q69 0 119.5 -50.5t50.5 -119.5q0 -70 -50 -120t-120 -50t-120 50t-50 120zM116 943q0 70 50 120t120 50t120 -50t50 -120t-50 -119.5t-120 -49.5t-120 49.5t-50 119.5z" />
<glyph unicode=";" horiz-adv-x="637" d="M137 943q0 70 49.5 120t119.5 50t120 -50t50 -120t-50 -119.5t-120 -49.5t-119.5 49.5t-49.5 119.5zM138 -322q27 0 57.5 12t60 35t49 64.5t19.5 92.5q0 47 -18 77q-56 0 -104 41.5t-48 113.5q0 73 51.5 126t128.5 53q80 0 133.5 -66.5t53.5 -189.5q0 -167 -83.5 -286.5 t-206.5 -119.5q-40 0 -66.5 16.5t-26.5 30.5z" />
<glyph unicode="&#x3c;" horiz-adv-x="1274" d="M155 814v20l964 617l-7 -265l-599 -362l599 -363v-265z" />
<glyph unicode="=" horiz-adv-x="1350" d="M155 394v222h1040v-222h-1040zM155 939v223h1040v-223h-1040z" />
<glyph unicode="&#x3e;" horiz-adv-x="1274" d="M155 1451l964 -617v-20l-956 -618v265l598 363l-598 362z" />
<glyph unicode="?" horiz-adv-x="1058" d="M78 1442q18 34 47.5 67.5t78 71t123 61t162.5 23.5q105 0 198.5 -38.5t156.5 -101t100 -141t37 -157.5q0 -210 -133 -340q-30 -28 -86.5 -71t-86.5 -69.5t-56.5 -78t-27.5 -116.5q0 -26 1 -41l-239 -1v29q0 69 21 129.5t64.5 117t94.5 103.5t126 106q38 29 64 80t26 106 q0 108 -76 173.5t-197 65.5q-101 0 -187.5 -49.5t-119.5 -128.5zM306 123q0 69 49.5 117.5t118.5 48.5q70 0 120.5 -50t50.5 -119t-50 -117.5t-119 -48.5q-71 0 -120.5 50t-49.5 119z" />
<glyph unicode="@" horiz-adv-x="2303" d="M78 463q0 164 44 320.5t123 289.5t191.5 245t246.5 190t292 122t323 44q212 0 388 -70.5t293 -192.5t181.5 -284.5t64.5 -347.5q0 -149 -44 -292.5t-120.5 -256t-191.5 -181.5t-247 -69q-149 0 -221.5 98t-64.5 268q-15 -84 -108 -140.5t-203 -56.5q-148 0 -238 103 t-90 267q0 135 54.5 253.5t155.5 192.5t225 74q104 -1 178 -54.5t74 -128.5l55 174h177l-76 -619q-4 -28 -4 -61q0 -81 31 -129.5t98 -48.5q71 0 130 53t95.5 137.5t56.5 182t20 193.5q0 165 -56 298t-153 218t-225.5 130t-276.5 44q-189 -1 -361 -76t-296.5 -201 t-198.5 -298.5t-74 -361.5q0 -152 53 -283.5t149.5 -227.5t239.5 -151t315 -55q132 0 242 46l67 -218q-85 -34 -159 -48t-174 -14q-197 0 -361 50.5t-277 137.5t-191.5 205t-115 251.5t-36.5 278.5zM902 558q0 -90 55 -149t147 -59q107 0 179 84.5t72 199.5q0 88 -51 145.5 t-141 57.5q-109 0 -185 -84t-76 -195z" />
<glyph unicode="A" horiz-adv-x="1578" d="M23 0l758 1645h15l758 -1645h-274l-110 245h-763l-110 -245h-274zM505 462h567l-283 630z" />
<glyph unicode="B" horiz-adv-x="1311" d="M155 0v1612h440q202 0 334 -124t132 -290q0 -119 -63.5 -204.5t-117.5 -85.5q68 0 136.5 -30.5t124 -83.5t90 -132.5t34.5 -170.5q0 -93 -35 -181t-98 -157t-160.5 -111t-213.5 -42h-603zM407 247h328q113 0 198 74t85 187q0 96 -77.5 165t-209.5 69l-324 -1v-494z M407 964l200 1h3q92 1 152 57q62 58 62 143t-63.5 143t-150.5 58h-203v-402z" />
<glyph unicode="C" horiz-adv-x="1516" d="M78 805q0 167 67 321.5t179 267t265.5 179.5t320.5 67q312 -4 560 -246l-147 -199q-88 88 -195.5 138t-222.5 50q-145 0 -276.5 -76.5t-213 -211t-81.5 -291.5q0 -118 49 -226.5t128.5 -184t183.5 -120.5t211 -45q224 0 418 192l146 -204q-246 -242 -556 -242 q-168 0 -323 66.5t-267 178t-179 265.5t-67 321z" />
<glyph unicode="D" horiz-adv-x="1522" d="M155 0v1612h459h4q382 0 604 -216q224 -218 223 -592q0 -371 -223.5 -587.5t-607.5 -216.5h-459zM407 252h209q264 0 418.5 149t154.5 404q0 256 -155 406t-421 150h-206v-1109z" />
<glyph unicode="E" horiz-adv-x="1223" d="M155 0v1612h960v-249h-707v-413h610v-252h-610v-446h707v-252h-960z" />
<glyph unicode="F" horiz-adv-x="1161" d="M155 -2v1618h960v-252h-707v-431h610v-252h-610v-683h-253z" />
<glyph unicode="G" horiz-adv-x="1764" d="M78 804q0 113 30 221t83.5 199.5t130.5 168.5t168.5 131.5t199 84.5t220.5 30q152 -1 312.5 -68.5t274.5 -178.5l-141 -210q-95 94 -215 148t-234 54q-109 0 -213 -44t-183.5 -120t-127.5 -185t-48 -231q0 -117 45 -223t123 -183.5t189.5 -123.5t237.5 -46 q210 0 347.5 116t137.5 299v5h-499v232h763q7 -65 7 -126q0 -175 -61 -323t-165.5 -247.5t-244 -155t-296.5 -55.5q-173 0 -329 66t-268 177.5t-178 265t-66 322.5z" />
<glyph unicode="H" horiz-adv-x="1513" d="M155 0v1612h252v-680h698v680h253v-1612h-253v681h-698v-681h-252z" />
<glyph unicode="I" horiz-adv-x="563" d="M155 0v1612h253v-1612h-253z" />
<glyph unicode="J" horiz-adv-x="1202" d="M47 80l128 223q96 -82 236 -82h7q161 0 276.5 117.5t115.5 278.5l-5 995l253 -1l5 -996q0 -177 -86 -326t-234 -234.5t-323 -85.5h-11q-202 0 -362 111z" />
<glyph unicode="K" horiz-adv-x="1328" d="M155 0v1612h252v-772l554 772h294l-572 -791l629 -821h-309l-596 780v-780h-252z" />
<glyph unicode="L" horiz-adv-x="1174" d="M155 0v1612h253v-1360h719v-252h-972z" />
<glyph unicode="M" horiz-adv-x="1889" d="M155 0v1647h19l771 -1172l770 1172h19v-1647h-253v894l-535 -867h-2l-536 868v-895h-253z" />
<glyph unicode="N" horiz-adv-x="1606" d="M155 -2v1642h13l1029 -1075v1051h254v-1644h-12l-1031 1077v-1051h-253z" />
<glyph unicode="O" d="M78 804q0 169 66 324t177.5 267t266 178.5t323.5 66.5t323 -66.5t266 -178.5t178.5 -267t66.5 -324q0 -168 -66.5 -321.5t-178.5 -265t-266.5 -177.5t-323.5 -66t-323 66t-265.5 177.5t-177.5 265t-66 321.5zM333 806q0 -156 77.5 -288.5t210.5 -210t289 -77.5 t289.5 77.5t211.5 210t78 288.5q0 157 -78 290.5t-211.5 211t-289.5 77.5t-289 -77.5t-210.5 -211t-77.5 -290.5z" />
<glyph unicode="P" horiz-adv-x="1307" d="M155 0v1612h539q153 0 284 -71.5t207 -194t76 -266.5q0 -141 -76 -261t-207 -190t-284 -70h-286v-559h-253zM408 810l286 -1h3q128 -1 219 79q92 80 92 194q0 115 -92 197t-222 82h-286v-551z" />
<glyph unicode="Q" d="M78 804q0 169 66 324t177.5 267t266 178.5t323.5 66.5t323 -66.5t266 -178.5t178.5 -267t66.5 -324q0 -168 -64.5 -319t-180.5 -267q104 -41 229 -47l-26 -247q-232 10 -411 143q-178 -93 -382 -93q-169 0 -323 66t-265.5 177.5t-177.5 265t-66 321.5zM333 806 q0 -156 77.5 -288.5t210.5 -210t289 -77.5q94 0 181 29q-9 10 -37.5 43t-38.5 44t-36.5 39t-39 39t-37.5 33.5t-41.5 32t-41.5 24.5t-46.5 21.5t-47.5 12.5t-53 7l17 218q75 -4 141 -25t112.5 -49.5t95.5 -72.5t82 -82t80.5 -91t82.5 -87q96 81 151 195.5t55 244.5 q0 157 -78 290.5t-211.5 211t-289.5 77.5t-289 -77.5t-210.5 -211t-77.5 -290.5z" />
<glyph unicode="R" horiz-adv-x="1367" d="M155 1612h501q148 0 273.5 -69t199 -188.5t73.5 -260.5q0 -155 -89.5 -279.5t-229.5 -169.5l469 -645h-311l-434 624h-198v-624h-253zM408 834h254h3q111 0 193 78q82 80 83 188q0 111 -82.5 186t-196.5 75h-254v-527z" />
<glyph unicode="S" horiz-adv-x="1257" d="M62 283l200 143q54 -94 149 -146t212 -52q137 0 227.5 59t90.5 151q0 27 -8.5 52.5t-28.5 49.5t-39 43t-54.5 41t-59 36t-69.5 35.5t-69 31.5t-72 31q-40 18 -64 29t-62 30.5t-62 34.5t-55.5 38.5t-51.5 45t-42 50.5t-34 59.5t-20 68.5t-8 79q0 129 69 232t187.5 159.5 t262.5 56.5q171 0 294.5 -77t173.5 -211l-188 -130q-37 80 -112.5 125t-165.5 45q-111 0 -188.5 -60t-77.5 -146q0 -21 5 -39t17 -34.5t23.5 -29.5t34.5 -27.5t40 -24.5t49 -24.5t52.5 -23.5t60.5 -25.5t63 -26.5q85 -37 146 -69.5t122.5 -77.5t99.5 -92.5t61.5 -111.5 t23.5 -138q0 -211 -163 -340.5t-412 -129.5q-195 0 -341 83.5t-217 226.5z" />
<glyph unicode="T" horiz-adv-x="1211" d="M47 1361v251h1118v-251h-432v-1361h-254v1361h-432z" />
<glyph unicode="U" horiz-adv-x="1498" d="M140 611v1001h254v-1000q0 -166 102.5 -276t251.5 -110t252.5 110t103.5 276v1000h255v-1001q0 -182 -80.5 -329t-220 -229.5t-309.5 -82.5t-309 82.5t-219.5 229.5t-80.5 329z" />
<glyph unicode="V" horiz-adv-x="1549" d="M23 1612h269l480 -1091l482 1091h271l-744 -1645h-17z" />
<glyph unicode="W" horiz-adv-x="1938" d="M23 1612h273l299 -995l369 927h10l369 -926l298 994h273l-512 -1627h-23l-413 972l-407 -972h-23z" />
<glyph unicode="X" horiz-adv-x="1377" d="M23 0l518 837l-483 775h292l339 -552l337 552h292l-483 -774l518 -838h-289l-376 608l-375 -608h-290z" />
<glyph unicode="Y" horiz-adv-x="1368" d="M23 1612h285l375 -642l376 642h285l-535 -923v-689h-251v689z" />
<glyph unicode="Z" horiz-adv-x="1320" d="M93 0l731 1361h-731v251h1134l-730 -1360h730v-252h-1134z" />
<glyph unicode="[" horiz-adv-x="699" d="M155 -120v1852h467v-191h-248v-1469h248v-192h-467z" />
<glyph unicode="\" horiz-adv-x="920" d="M24 1732h223l650 -1852h-223z" />
<glyph unicode="]" horiz-adv-x="699" d="M78 72h248v1469h-248v191h466v-1852h-466v192z" />
<glyph unicode="^" horiz-adv-x="955" d="M23 1094l443 584h20l445 -584h-223l-231 303l-231 -303h-223z" />
<glyph unicode="_" horiz-adv-x="1209" d="M0 -88v177h1209v-177h-1209z" />
<glyph unicode="`" horiz-adv-x="600" d="M0 1660h223l198 -327h-183z" />
<glyph unicode="i" horiz-adv-x="563" d="M155 0v1612h253v-1612h-253z" />
<glyph unicode="{" horiz-adv-x="871" d="M78 735v155q94 0 157 103.5t63 251.5v174q0 129 78 221t188 92h230v-191l-165 -3q-46 -1 -79.5 -66.5t-33.5 -156.5v-102q0 -165 -62.5 -282.5t-150.5 -117.5q88 0 150.5 -117.5t62.5 -283.5v-114q0 -93 33 -159.5t80 -66.5h165v-192h-230q-110 0 -188 92t-78 222v186 q0 148 -63 251.5t-157 103.5z" />
<glyph unicode="|" horiz-adv-x="630" d="M238 -450v2300h154v-2300h-154z" />
<glyph unicode="}" horiz-adv-x="871" d="M78 72h164q46 0 79.5 66.5t33.5 159.5v114q0 166 63 283.5t151 117.5q-88 0 -151 117.5t-63 282.5v102q0 91 -33.5 156.5t-79.5 66.5l-164 3v191h229q110 0 188.5 -92t78.5 -221v-174q0 -148 63 -251.5t157 -103.5v-155q-94 0 -157 -103.5t-63 -251.5v-186 q0 -130 -78.5 -222t-188.5 -92h-229v192z" />
<glyph unicode="~" horiz-adv-x="1500" d="M155 672q17 79 50 139.5t70.5 94.5t83.5 55.5t83 28t76 6.5q62 0 117.5 -21t95.5 -51t77 -59.5t79 -50.5t85 -21q126 0 175 194l187 -72q-17 -80 -50 -140.5t-70.5 -94.5t-83.5 -55t-83 -27.5t-76 -6.5q-62 0 -117.5 21t-95.5 50.5t-77 59.5t-79 51t-85 21 q-127 0 -175 -195z" />
<glyph horiz-adv-x="1992" />
<glyph unicode="&#xa1;" horiz-adv-x="650" d="M155 1043q0 69 50 117t120 48t120 -49.5t50 -119.5q0 -69 -49.5 -117.5t-118.5 -48.5q-71 0 -121.5 50.5t-50.5 119.5zM182 -450l38 1100h212l40 -1100h-290z" />
<glyph unicode="&#xa2;" horiz-adv-x="1198" d="M71 750q0 230 142 403t356 221v226l206 1v-214q193 -20 336 -137l-135 -201q-78 75 -201 95v-787q123 20 205 97l146 -192q-146 -129 -351 -149v-208l-206 -4v225q-214 48 -356 220.5t-142 403.5zM312 750q0 -130 71.5 -230t185.5 -143v746q-113 -42 -185 -143t-72 -230z " />
<glyph unicode="&#xa3;" horiz-adv-x="1207" d="M83 0v228h125q101 153 101 329q0 54 -19 127h-206v182h153q-24 94 -24 184q0 118 40.5 223.5t113.5 185.5t184.5 127t244.5 47q71 0 156 -20.5t154 -57.5l-123 -213q-30 27 -78.5 44.5t-98.5 17.5q-82 0 -148 -30.5t-107 -81t-62.5 -113t-21.5 -130.5q0 -92 24 -183h360 v-182h-306q16 -71 16 -127q0 -191 -96 -329h664v-228h-1046z" />
<glyph unicode="&#xa4;" horiz-adv-x="1211" d="M78 385l205 201q-67 99 -67 218q0 128 72 228l-201 204l98 98l201 -204q99 69 222 69t225 -70l202 200l99 -99l-202 -200q70 -102 70 -224q0 -126 -74 -228l201 -202l-98 -97l-202 203q-100 -68 -223 -68q-126 0 -227 74l-204 -201zM412 806q0 -81 57.5 -138t138.5 -57 t138 57.5t57 138.5q0 83 -60 139t-140 56t-135.5 -57t-55.5 -139z" />
<glyph unicode="&#xa5;" horiz-adv-x="1476" d="M78 1612h285l375 -642l375 642h286l-437 -752h407v-196h-506v-134h506v-197h-506v-333h-251v333h-493v197h493v134h-493v196h394z" />
<glyph unicode="&#xa6;" horiz-adv-x="630" d="M238 -450v1000h154v-1000h-154zM238 850v1000h154v-1000h-154z" />
<glyph unicode="&#xa7;" horiz-adv-x="1353" d="M225 184l137 157q51 -77 134.5 -121t186.5 -44q82 0 140.5 34.5t58.5 101.5q0 24 -8.5 45t-32.5 41t-41 33t-60 32.5t-62 27t-72 28.5q-3 1 -5.5 2t-4.5 2q-50 19 -88.5 37t-86 49.5t-79 66.5t-53.5 86.5t-22 110.5q0 139 105 230q-100 91 -100 221q0 155 124 253t297 98 q131 0 243 -62t153 -158l-166 -138q-40 61 -103 92t-137 31t-122 -33t-48 -92q0 -23 10 -41t23 -31t48 -30.5t61.5 -29t86.5 -35.5l30 -12q65 -27 108 -47t94.5 -53t81.5 -67t51 -83.5t21 -107.5q0 -144 -99 -237q94 -87 94 -214q0 -172 -130.5 -279.5t-318.5 -107.5 q-153 0 -275.5 70.5t-173.5 173.5zM501 865q0 -53 46.5 -83.5t176.5 -80.5q28 -11 43 -17l53 -21q75 35 75 101q0 35 -21.5 64.5t-64.5 54t-82.5 42t-101.5 41.5q-6 2 -8.5 3t-7 3t-8.5 3q-1 0 -3 1q-43 -15 -70 -43.5t-27 -67.5z" />
<glyph unicode="&#xa8;" horiz-adv-x="600" d="M-35 1486q0 43 31.5 74.5t74.5 31.5t74 -31.5t31 -74.5t-31 -73.5t-74 -30.5t-74.5 30.5t-31.5 73.5zM415 1486q0 43 31 74.5t73 31.5q43 0 74.5 -31.5t31.5 -74.5t-31 -73.5t-75 -30.5q-43 0 -73.5 30.5t-30.5 73.5z" />
<glyph unicode="&#xa9;" horiz-adv-x="1739" d="M78 705q0 162 62 308.5t167 252t252 168t311 62.5t311 -63t252.5 -169.5t167 -252.5t61.5 -307q0 -163 -63 -310.5t-169 -253t-252.5 -167.5t-307.5 -62q-163 0 -310 62.5t-252.5 168.5t-167.5 253t-62 310zM205 704q0 -134 53.5 -257t142.5 -212.5t212 -142.5t257 -53 t257 53t212.5 142t142.5 212.5t53 257.5t-53 257.5t-142.5 213t-212.5 142.5t-257 53q-179 0 -332.5 -90t-243 -243.5t-89.5 -332.5zM396 710q0 137 67.5 250.5t180 177.5t242.5 64q173 0 310 -108l-105 -156q-36 36 -91 57t-113 21q-124 0 -214.5 -88t-90.5 -218t90.5 -218 t213.5 -88q59 0 114 22t94 58l113 -149q-64 -55 -148.5 -85.5t-172.5 -30.5q-130 0 -242.5 63.5t-180 177t-67.5 250.5z" />
<glyph unicode="&#xab;" horiz-adv-x="1183" d="M78 795l379 524l161 -35l-300 -489l300 -488l-161 -36zM565 795l379 524l162 -35l-301 -489l301 -488l-162 -36z" />
<glyph unicode="&#xac;" horiz-adv-x="1461" d="M155 770v235h1151v-568h-235v333h-916z" />
<glyph unicode="&#xad;" horiz-adv-x="945" d="M78 675v222h790v-222h-790z" />
<glyph unicode="&#xae;" horiz-adv-x="1106" d="M85 1145q0 195 136 331t332 136t332 -136.5t136 -330.5q0 -130 -63 -237.5t-170.5 -169t-234.5 -61.5q-128 0 -236 62.5t-170 170t-62 235.5zM160 1144q0 -161 116 -277t277 -116t277 116t116 277q0 162 -116 278t-277 116t-277 -116t-116 -278zM397 899v501h160 q70 0 119.5 -47t49.5 -114q0 -48 -28.5 -87t-72.5 -53l147 -200h-89l-146 207l-67 19v-226h-73zM469 1153h89q38 0 66 25t28 60q0 37 -28 63.5t-66 26.5h-89v-175z" />
<glyph unicode="&#xaf;" horiz-adv-x="600" d="M14 1401v132h572v-132h-572z" />
<glyph unicode="&#xb0;" horiz-adv-x="688" d="M71 1375q0 112 80.5 193t192.5 81t192 -81t80 -193t-80.5 -192t-191.5 -80t-192 80.5t-81 191.5zM188 1375q0 -63 45.5 -109t110.5 -46q64 0 109.5 46t45.5 110t-46 110t-109 46t-109.5 -46.5t-46.5 -110.5z" />
<glyph unicode="&#xb1;" horiz-adv-x="1201" d="M155 224v200h891v-200h-891zM155 896v215h329v306h235v-306h327v-215h-327v-337h-235v337h-329z" />
<glyph unicode="&#xb4;" horiz-adv-x="600" d="M0 1333l198 327h223l-238 -327h-183z" />
<glyph unicode="&#xb5;" horiz-adv-x="1333" d="M143 -450v1650h241v-649q0 -171 77 -259t213 -88t206 81.5t70 265.5v649h241v-649q0 -581 -440 -581q-232 0 -367 165v-585h-241z" />
<glyph unicode="&#xb6;" horiz-adv-x="1550" d="M225 1176q0 128 65.5 237.5t177.5 173t244 63.5h271v-1737h-178v789h-93q-132 0 -244 63.5t-177.5 173t-65.5 237.5zM1150 -95v1745h175v-1745h-175z" />
<glyph unicode="&#xb7;" horiz-adv-x="572" d="M116 785q0 70 50 120t120 50q69 0 119.5 -50.5t50.5 -119.5t-50 -118.5t-120 -49.5t-120 49t-50 119z" />
<glyph unicode="&#xb8;" horiz-adv-x="600" d="M63 -365q278 7 278 105q0 57 -86 57q-26 0 -59 -6l-34 44l144 191h129l-105 -137q25 3 45 3q61 0 100.5 -41t39.5 -104q0 -108 -110 -186t-278 -82z" />
<glyph unicode="&#xbb;" horiz-adv-x="1183" d="M78 307l300 488l-300 489l161 35l379 -524l-379 -524zM565 307l301 488l-301 489l162 35l379 -524l-379 -524z" />
<glyph unicode="&#xbf;" horiz-adv-x="1058" d="M78 -37q0 211 133 340q30 28 86.5 71t86.5 69.5t56 78t27 116.5q0 26 -1 41l239 1v-29q0 -69 -21 -129.5t-64.5 -117t-94.5 -103.5t-126 -106q-38 -30 -64 -81t-26 -105q0 -108 76.5 -173.5t196.5 -65.5q101 0 187.5 49t119.5 129l92 -200q-18 -34 -47.5 -67.5t-78.5 -71 t-123.5 -61t-162.5 -23.5q-104 0 -197.5 38.5t-156.5 101t-100 141t-37 157.5zM413 1070q0 69 50 117.5t120 48.5q71 0 120 -49.5t49 -119.5q0 -69 -49.5 -117.5t-118.5 -48.5q-70 0 -120.5 50t-50.5 119z" />
<glyph unicode="&#xc0;" horiz-adv-x="1578" d="M23 0l758 1645h15l758 -1645h-274l-110 245h-763l-110 -245h-274zM505 462h567l-283 630zM579 2072h223l198 -327h-183z" />
<glyph unicode="&#xc1;" horiz-adv-x="1578" d="M23 0l758 1645h15l758 -1645h-274l-110 245h-763l-110 -245h-274zM505 462h567l-283 630zM635 1745l198 327h223l-238 -327h-183z" />
<glyph unicode="&#xc2;" horiz-adv-x="1578" d="M23 0l758 1645h15l758 -1645h-274l-110 245h-763l-110 -245h-274zM403 1760l314 292h142l317 -292h-206l-182 172l-181 -172h-204zM505 462h567l-283 630z" />
<glyph unicode="&#xc3;" horiz-adv-x="1578" d="M23 0l758 1645h15l758 -1645h-274l-110 245h-763l-110 -245h-274zM396 1824q14 65 43 111t65.5 67t68.5 29.5t65 8.5q42 0 79 -14t63.5 -34t51 -40t52.5 -34t57 -14q84 0 117 130l124 -48q-14 -65 -43 -111t-65.5 -67t-68.5 -29.5t-65 -8.5q-51 0 -96 21t-72.5 46.5 t-63 46.5t-70.5 21q-85 0 -117 -130zM505 462h567l-283 630z" />
<glyph unicode="&#xc4;" horiz-adv-x="1578" d="M23 0l758 1645h15l758 -1645h-274l-110 245h-763l-110 -245h-274zM460 1898q0 43 31 74.5t74 31.5t74 -31.5t31 -74.5t-31 -73.5t-74 -30.5t-74 30.5t-31 73.5zM505 462h567l-283 630zM909 1898q0 43 31 74.5t73 31.5q43 0 74.5 -31.5t31.5 -74.5t-31 -73.5t-75 -30.5 q-43 0 -73.5 30.5t-30.5 73.5z" />
<glyph unicode="&#xc5;" horiz-adv-x="1578" d="M23 0l758 1645h15l758 -1645h-274l-110 245h-763l-110 -245h-274zM505 462h567l-283 630zM575 1929q0 89 63.5 152t151.5 63t151 -63.5t63 -151.5t-63 -151.5t-151 -63.5t-151.5 63t-63.5 152zM683 1928q0 -44 31.5 -75t75.5 -31t75 31t31 75t-31 75.5t-75 31.5 t-75.5 -31.5t-31.5 -75.5z" />
<glyph unicode="&#xc6;" horiz-adv-x="2057" d="M23 0l806 1612h1119v-249h-706v-413h609v-252h-609v-446h706v-252h-959v262h-561l-133 -262h-272zM543 488h446v875z" />
<glyph unicode="&#xc7;" horiz-adv-x="1516" d="M78 805q0 167 67 321.5t179 267t265.5 179.5t320.5 67q312 -4 560 -246l-147 -199q-88 88 -195.5 138t-222.5 50q-145 0 -276.5 -76.5t-213 -211t-81.5 -291.5q0 -118 49 -226.5t128.5 -184t183.5 -120.5t211 -45q224 0 418 192l146 -204q-235 -232 -531 -242l-65 -85 q25 3 45 3q61 0 100.5 -41t39.5 -104q0 -108 -110 -186t-278 -82l-64 156q278 7 278 105q0 57 -86 57q-26 0 -59 -6l-34 44l109 145q-152 18 -288 90.5t-235 181.5t-156.5 253.5t-57.5 299.5z" />
<glyph unicode="&#xc8;" horiz-adv-x="1223" d="M155 0v1612h960v-249h-707v-413h610v-252h-610v-446h707v-252h-960zM404 2072h223l198 -327h-183z" />
<glyph unicode="&#xc9;" horiz-adv-x="1223" d="M155 0v1612h960v-249h-707v-413h610v-252h-610v-446h707v-252h-960zM460 1745l198 327h223l-238 -327h-183z" />
<glyph unicode="&#xca;" horiz-adv-x="1223" d="M155 0v1612h960v-249h-707v-413h610v-252h-610v-446h707v-252h-960zM228 1760l314 292h142l317 -292h-206l-182 172l-181 -172h-204z" />
<glyph unicode="&#xcb;" horiz-adv-x="1223" d="M155 0v1612h960v-249h-707v-413h610v-252h-610v-446h707v-252h-960zM286 1898q0 43 31 74.5t74 31.5t74 -31.5t31 -74.5t-31 -73.5t-74 -30.5t-74 30.5t-31 73.5zM735 1898q0 43 31 74.5t73 31.5q43 0 74.5 -31.5t31.5 -74.5t-31 -73.5t-75 -30.5q-43 0 -73.5 30.5 t-30.5 73.5z" />
<glyph unicode="&#xcc;" horiz-adv-x="563" d="M71 2072h223l198 -327h-183zM155 0v1612h253v-1612h-253z" />
<glyph unicode="&#xcd;" horiz-adv-x="563" d="M127 1745l198 327h223l-238 -327h-183zM155 0v1612h253v-1612h-253z" />
<glyph unicode="&#xce;" horiz-adv-x="563" d="M-105 1760l314 292h142l317 -292h-206l-182 172l-181 -172h-204zM155 0v1612h253v-1612h-253z" />
<glyph unicode="&#xcf;" horiz-adv-x="563" d="M-49 1898q0 43 31.5 74.5t74.5 31.5t74 -31.5t31 -74.5t-31 -73.5t-74 -30.5q-44 0 -75 30.5t-31 73.5zM155 0v1612h253v-1612h-253zM401 1898q0 43 31 74.5t73 31.5q43 0 74.5 -31.5t31.5 -74.5t-31 -73.5t-75 -30.5q-43 0 -73.5 30.5t-30.5 73.5z" />
<glyph unicode="&#xd0;" horiz-adv-x="1603" d="M47 715v169h189v728h459q383 1 606.5 -216.5t223.5 -591.5q0 -371 -223.5 -587.5t-606.5 -216.5h-459v715h-189zM488 252h209q264 0 418.5 149t154.5 404q0 256 -155 406t-421 150h-206v-478h311v-168h-311v-463z" />
<glyph unicode="&#xd1;" horiz-adv-x="1606" d="M155 -2v1642h13l1029 -1075v1051h254v-1644h-12l-1031 1077v-1051h-253zM410 1824q14 65 43 111t65.5 67t68.5 29.5t65 8.5q42 0 79 -14t63.5 -34t51 -40t52.5 -34t57 -14q84 0 117 130l124 -48q-14 -65 -43 -111t-65.5 -67t-68.5 -29.5t-65 -8.5q-51 0 -96 21 t-72.5 46.5t-63 46.5t-70.5 21q-85 0 -117 -130z" />
<glyph unicode="&#xd2;" d="M78 804q0 169 66 324t177.5 267t266 178.5t323.5 66.5t323 -66.5t266 -178.5t178.5 -267t66.5 -324q0 -168 -66.5 -321.5t-178.5 -265t-266.5 -177.5t-323.5 -66t-323 66t-265.5 177.5t-177.5 265t-66 321.5zM333 806q0 -156 77.5 -288.5t210.5 -210t289 -77.5 t289.5 77.5t211.5 210t78 288.5q0 157 -78 290.5t-211.5 211t-289.5 77.5t-289 -77.5t-210.5 -211t-77.5 -290.5zM700 2072h223l198 -327h-183z" />
<glyph unicode="&#xd3;" d="M78 804q0 169 66 324t177.5 267t266 178.5t323.5 66.5t323 -66.5t266 -178.5t178.5 -267t66.5 -324q0 -168 -66.5 -321.5t-178.5 -265t-266.5 -177.5t-323.5 -66t-323 66t-265.5 177.5t-177.5 265t-66 321.5zM333 806q0 -156 77.5 -288.5t210.5 -210t289 -77.5 t289.5 77.5t211.5 210t78 288.5q0 157 -78 290.5t-211.5 211t-289.5 77.5t-289 -77.5t-210.5 -211t-77.5 -290.5zM756 1745l198 327h223l-238 -327h-183z" />
<glyph unicode="&#xd4;" d="M78 804q0 169 66 324t177.5 267t266 178.5t323.5 66.5t323 -66.5t266 -178.5t178.5 -267t66.5 -324q0 -168 -66.5 -321.5t-178.5 -265t-266.5 -177.5t-323.5 -66t-323 66t-265.5 177.5t-177.5 265t-66 321.5zM333 806q0 -156 77.5 -288.5t210.5 -210t289 -77.5 t289.5 77.5t211.5 210t78 288.5q0 157 -78 290.5t-211.5 211t-289.5 77.5t-289 -77.5t-210.5 -211t-77.5 -290.5zM524 1760l314 292h142l317 -292h-206l-182 172l-181 -172h-204z" />
<glyph unicode="&#xd5;" d="M78 804q0 169 66 324t177.5 267t266 178.5t323.5 66.5t323 -66.5t266 -178.5t178.5 -267t66.5 -324q0 -168 -66.5 -321.5t-178.5 -265t-266.5 -177.5t-323.5 -66t-323 66t-265.5 177.5t-177.5 265t-66 321.5zM333 806q0 -156 77.5 -288.5t210.5 -210t289 -77.5 t289.5 77.5t211.5 210t78 288.5q0 157 -78 290.5t-211.5 211t-289.5 77.5t-289 -77.5t-210.5 -211t-77.5 -290.5zM518 1824q14 65 43 111t65.5 67t68.5 29.5t65 8.5q42 0 79 -14t63.5 -34t51 -40t52.5 -34t57 -14q84 0 117 130l124 -48q-14 -65 -43 -111t-65.5 -67 t-68.5 -29.5t-65 -8.5q-51 0 -96 21t-72.5 46.5t-63 46.5t-70.5 21q-85 0 -117 -130z" />
<glyph unicode="&#xd6;" d="M78 804q0 169 66 324t177.5 267t266 178.5t323.5 66.5t323 -66.5t266 -178.5t178.5 -267t66.5 -324q0 -168 -66.5 -321.5t-178.5 -265t-266.5 -177.5t-323.5 -66t-323 66t-265.5 177.5t-177.5 265t-66 321.5zM333 806q0 -156 77.5 -288.5t210.5 -210t289 -77.5 t289.5 77.5t211.5 210t78 288.5q0 157 -78 290.5t-211.5 211t-289.5 77.5t-289 -77.5t-210.5 -211t-77.5 -290.5zM582 1898q0 43 31 74.5t74 31.5t74 -31.5t31 -74.5t-31 -73.5t-74 -30.5t-74 30.5t-31 73.5zM1031 1898q0 43 31 74.5t73 31.5q43 0 74.5 -31.5t31.5 -74.5 t-31 -73.5t-75 -30.5q-43 0 -73.5 30.5t-30.5 73.5z" />
<glyph unicode="&#xd7;" horiz-adv-x="1351" d="M155 1172l159 149l362 -380l360 381l159 -149l-369 -390l370 -390l-159 -149l-361 380l-361 -381l-159 148l370 391z" />
<glyph unicode="&#xd8;" d="M78 804q0 169 66 324t177.5 267t266 178.5t323.5 66.5q217 0 410 -109l81 118h214l-152 -220q132 -118 206.5 -280.5t74.5 -344.5q0 -168 -66.5 -321.5t-178.5 -265t-266.5 -177.5t-323.5 -66q-205 0 -386 96l-106 -153h-215l174 251q-140 117 -219.5 283t-79.5 353z M333 806q0 -125 50.5 -235.5t139.5 -191.5l652 942q-125 64 -265 64q-156 0 -289 -77.5t-210.5 -211t-77.5 -290.5zM671 282q115 -52 239 -52q156 0 289.5 77.5t211.5 210t78 288.5q0 118 -45.5 224.5t-126.5 186.5z" />
<glyph unicode="&#xd9;" horiz-adv-x="1498" d="M140 611v1001h254v-1000q0 -166 102.5 -276t251.5 -110t252.5 110t103.5 276v1000h255v-1001q0 -182 -80.5 -329t-220 -229.5t-309.5 -82.5t-309 82.5t-219.5 229.5t-80.5 329zM539 2072h223l198 -327h-183z" />
<glyph unicode="&#xda;" horiz-adv-x="1498" d="M140 611v1001h254v-1000q0 -166 102.5 -276t251.5 -110t252.5 110t103.5 276v1000h255v-1001q0 -182 -80.5 -329t-220 -229.5t-309.5 -82.5t-309 82.5t-219.5 229.5t-80.5 329zM594 1745l198 327h223l-238 -327h-183z" />
<glyph unicode="&#xdb;" horiz-adv-x="1498" d="M140 611v1001h254v-1000q0 -166 102.5 -276t251.5 -110t252.5 110t103.5 276v1000h255v-1001q0 -182 -80.5 -329t-220 -229.5t-309.5 -82.5t-309 82.5t-219.5 229.5t-80.5 329zM363 1760l314 292h142l317 -292h-206l-182 172l-181 -172h-204z" />
<glyph unicode="&#xdc;" horiz-adv-x="1498" d="M140 611v1001h254v-1000q0 -166 102.5 -276t251.5 -110t252.5 110t103.5 276v1000h255v-1001q0 -182 -80.5 -329t-220 -229.5t-309.5 -82.5t-309 82.5t-219.5 229.5t-80.5 329zM420 1898q0 43 31 74.5t74 31.5t74 -31.5t31 -74.5t-31 -73.5t-74 -30.5t-74 30.5t-31 73.5z M869 1898q0 43 31 74.5t73 31.5q43 0 74.5 -31.5t31.5 -74.5t-31 -73.5t-75 -30.5q-43 0 -73.5 30.5t-30.5 73.5z" />
<glyph unicode="&#xdd;" horiz-adv-x="1368" d="M23 1612h285l375 -642l376 642h285l-535 -923v-689h-251v689zM530 1745l198 327h223l-238 -327h-183z" />
<glyph unicode="&#xde;" horiz-adv-x="1297" d="M155 0v1612h252v-286h283q221 0 375.5 -149t154.5 -361t-154.5 -360.5t-375.5 -148.5h-283v-307h-252zM407 540h283q122 0 209 81t87 195t-87 195.5t-209 81.5h-283v-553z" />
<glyph unicode="&#xf7;" horiz-adv-x="1566" d="M155 664v212h1256v-212h-1256zM598 266q0 70 50 119t118 49t119 -50.5t51 -118.5t-50 -118.5t-120 -50.5q-69 0 -118.5 50t-49.5 120zM598 1262q0 69 49.5 118.5t117.5 49.5q69 0 120 -50.5t51 -118.5t-50 -117.5t-119 -50.5q-70 -1 -119.5 49t-49.5 120z" />
<glyph unicode="&#x152;" horiz-adv-x="2526" d="M78 804q0 169 65 324t173.5 267t257 178.5t308.5 66.5q174 0 322 -66.5t254 -187.5v226h960v-249h-707v-413h610v-252h-610v-446h707v-252h-960v229q-106 -121 -254.5 -188t-322.5 -67q-160 0 -308 66t-256.5 177.5t-173.5 265t-65 321.5zM333 806q0 -156 75.5 -288.5 t205.5 -210t282 -77.5q150 0 278.5 74t206 207t77.5 295q0 125 -45.5 234t-122 184t-179.5 118t-215 43q-152 0 -281.5 -77.5t-205.5 -211t-76 -290.5z" />
<glyph unicode="&#x178;" horiz-adv-x="1368" d="M23 1612h285l375 -642l376 642h285l-535 -923v-689h-251v689zM355 1898q0 43 31 74.5t74 31.5t74 -31.5t31 -74.5t-31 -73.5t-74 -30.5t-74 30.5t-31 73.5zM804 1898q0 43 31 74.5t73 31.5q43 0 74.5 -31.5t31.5 -74.5t-31 -73.5t-75 -30.5q-43 0 -73.5 30.5t-30.5 73.5z " />
<glyph unicode="&#x2c6;" horiz-adv-x="600" d="M-45 1348l314 292h142l317 -292h-206l-182 172l-181 -172h-204z" />
<glyph unicode="&#x2dc;" horiz-adv-x="706" d="M0 1412q14 65 43 111t65.5 67t68.5 29.5t65 8.5q42 0 79 -14t63.5 -34t51 -40t52.5 -34t57 -14q84 0 117 130l124 -48q-14 -65 -43 -111t-65.5 -67t-68.5 -29.5t-65 -8.5q-51 0 -96 21t-72.5 46.5t-63 46.5t-70.5 21q-85 0 -117 -130z" />
<glyph unicode="&#x2000;" horiz-adv-x="1072" />
<glyph unicode="&#x2001;" horiz-adv-x="2144" />
<glyph unicode="&#x2002;" horiz-adv-x="1072" />
<glyph unicode="&#x2003;" horiz-adv-x="2144" />
<glyph unicode="&#x2004;" horiz-adv-x="714" />
<glyph unicode="&#x2005;" horiz-adv-x="536" />
<glyph unicode="&#x2006;" horiz-adv-x="357" />
<glyph unicode="&#x2007;" horiz-adv-x="357" />
<glyph unicode="&#x2008;" horiz-adv-x="268" />
<glyph unicode="&#x2009;" horiz-adv-x="428" />
<glyph unicode="&#x200a;" horiz-adv-x="119" />
<glyph unicode="&#x2010;" horiz-adv-x="945" d="M78 675v222h790v-222h-790z" />
<glyph unicode="&#x2011;" horiz-adv-x="945" d="M78 675v222h790v-222h-790z" />
<glyph unicode="&#x2012;" horiz-adv-x="945" d="M78 675v222h790v-222h-790z" />
<glyph unicode="&#x2013;" horiz-adv-x="1416" d="M83 675v222h1251v-222h-1251z" />
<glyph unicode="&#x2014;" horiz-adv-x="2048" d="M57 675v222h1935v-222h-1935z" />
<glyph unicode="&#x2018;" horiz-adv-x="512" d="M74 1261q0 156 77.5 267t192.5 111q38 0 62.5 -15.5t24.5 -28.5q-25 0 -53.5 -11t-56 -33t-45.5 -60.5t-18 -86.5q0 -44 16 -71q52 0 97 -39t45 -105q0 -69 -48 -118t-120 -49q-75 0 -124.5 62t-49.5 177z" />
<glyph unicode="&#x2019;" horiz-adv-x="512" d="M81 1080q25 0 53.5 11t56 33t45.5 60.5t18 86.5q0 45 -16 71q-52 0 -97 39t-45 105q0 69 48 118.5t120 49.5q75 0 124.5 -62t49.5 -177q0 -156 -77.5 -267t-192.5 -111q-37 0 -62 15t-25 28z" />
<glyph unicode="&#x201a;" horiz-adv-x="512" d="M81 -269q25 0 53.5 11t56 33t45.5 60.5t18 86.5q0 45 -16 72q-52 0 -97 38.5t-45 105.5q0 69 48 118t120 49q75 0 124.5 -62t49.5 -177q0 -156 -77.5 -267t-192.5 -111q-37 0 -62 15t-25 28z" />
<glyph unicode="&#x201c;" horiz-adv-x="955" d="M74 1259q0 156 77.5 267t192.5 111q38 0 62.5 -15.5t24.5 -28.5q-25 0 -53.5 -11t-56 -33t-45.5 -60.5t-18 -86.5q0 -44 16 -71q52 0 97 -39t45 -105q0 -69 -48 -118t-120 -49q-75 0 -124.5 62t-49.5 177zM517 1259q0 156 77.5 267t192.5 111q38 0 62.5 -15.5t24.5 -28.5 q-25 0 -53.5 -11t-56 -33t-45.5 -60.5t-18 -86.5q0 -44 16 -71q52 0 97 -39t45 -105q0 -69 -48 -118t-120 -49q-75 0 -124.5 62t-49.5 177z" />
<glyph unicode="&#x201d;" horiz-adv-x="955" d="M81 1077q25 0 53.5 11t56 33t45.5 60.5t18 86.5q0 45 -16 71q-52 0 -97 39t-45 105q0 69 48 118.5t120 49.5q75 0 124.5 -62t49.5 -177q0 -156 -77.5 -267t-192.5 -111q-37 0 -62 15t-25 28zM524 1077q25 0 53.5 11t56 33t45.5 60.5t18 86.5q0 45 -16 71q-52 0 -97 39 t-45 105q0 69 48 118.5t120 49.5q75 0 124.5 -62t49.5 -177q0 -156 -77.5 -267t-192.5 -111q-37 0 -62 15t-25 28z" />
<glyph unicode="&#x201e;" horiz-adv-x="955" d="M81 -271q25 0 53.5 11t56 33t45.5 60.5t18 86.5q0 45 -16 72q-52 0 -97 38.5t-45 105.5q0 69 48 118t120 49q75 0 124.5 -62t49.5 -177q0 -156 -77.5 -267t-192.5 -111q-37 0 -62 15t-25 28zM524 -271q25 0 53.5 11t56 33t45.5 60.5t18 86.5q0 45 -16 72q-52 0 -97 38.5 t-45 105.5q0 69 48 118t120 49q75 0 124.5 -62t49.5 -177q0 -156 -77.5 -267t-192.5 -111q-37 0 -62 15t-25 28z" />
<glyph unicode="&#x2022;" horiz-adv-x="1023" d="M235 782q0 114 81.5 195t195.5 81t195 -81t81 -194t-81.5 -193.5t-195.5 -80.5t-195 80t-81 193z" />
<glyph unicode="&#x2026;" horiz-adv-x="2055" d="M200 123q0 70 50 120t120 50q69 0 119.5 -50.5t50.5 -119.5t-50.5 -119t-119.5 -50q-70 0 -120 49.5t-50 119.5zM858 123q0 70 50 120t119 50t119.5 -50.5t50.5 -119.5q0 -70 -50 -119.5t-120 -49.5t-119.5 49.5t-49.5 119.5zM1515 123q0 70 50 120t120 50 q69 0 119.5 -50.5t50.5 -119.5t-50.5 -119t-119.5 -50q-70 0 -120 49.5t-50 119.5z" />
<glyph unicode="&#x202f;" horiz-adv-x="428" />
<glyph unicode="&#x2039;" horiz-adv-x="696" d="M78 795l379 524l161 -35l-300 -489l300 -488l-161 -36z" />
<glyph unicode="&#x203a;" horiz-adv-x="696" d="M78 307l300 488l-300 489l161 35l379 -524l-379 -524z" />
<glyph unicode="&#x205f;" horiz-adv-x="536" />
<glyph unicode="&#x20ac;" horiz-adv-x="1711" d="M78 616l17 132h148q-2 38 -2 57q0 36 3 72h-166l17 132h172q71 272 297 451.5t510 179.5q154 -2 296.5 -65.5t262.5 -180.5l-146 -199q-88 88 -196 138t-223 50q-169 0 -318 -104.5t-214 -269.5h718l-17 -132h-735q-5 -40 -5 -73q0 -29 3 -56h727l-17 -132h-680 q62 -171 214 -279.5t326 -108.5q223 0 417 192l146 -204q-244 -242 -556 -242q-291 0 -519 182.5t-295 459.5h-185z" />
<glyph unicode="&#x2122;" horiz-adv-x="1303" d="M53 1505v107h474v-107h-183v-577h-108v577h-183zM607 928v698h8l327 -496l326 496h8v-698h-107v378l-227 -367h-1l-227 369v-380h-107z" />
<glyph unicode="&#x25fc;" horiz-adv-x="1610" d="M0 0v1610h1610v-1610h-1610z" />
</font>
</defs>
</svg>
